Witaj Gościu! jeżeli widzisz ten dymek to znaczy że nie jesteś zarejestrowany/zalogowany. Kliknij by się zarejestrować. Rejestracja zajmie mniej niż 30 sekund, a dzięki niej zyskasz możliwość pobierania, komentowania oraz dodawania torrentów !



User:      Hasło:     

MENU


Kategorie


FACEBOOK


PROGRAMY


Torrent: Venom *2018* [720p] [WEBRip] [XviD] [MP3] [SHITBOX] [ENG]
Dodał:  8fd415bf
Data: 28-11-2018
Rozmiar: 3.00 GB
Seed: 0
Peer: 0
Kondycja:
Zaloguj się aby pobrać


Kategoria:  Filmy DivX/XviD
Gatunek: Sci-Fi / Fantasy
Zaakceptował: Nie wymagał akceptacji
Liczba pobrań: 12
Liczba komentarzy: 0
Ostatnia aktualizacja: 2018-12-16 10:03:55

OPIS:



Produkcja: USA
Gatunek: Akcja, Sci-Fi
Premiera: 5 października 2018 (Polska), 1 października 2018 (świat)
Reżyseria: Ruben Fleischer
Scenariusz: Scott Rosenberg, Jeff Pinkner



Venom, obcy symbiont, jedna z najważniejszych, najbardziej złożonych postaci Marvela wychodzi z cienia, wchodząc w ciało i osobowość Eddiego Brocka (Tom Hardy). Jako dziennikarz, Eddie próbował zdemaskować niecne działania słynnej firmy Life Foundation, prowadzonej przez naukowca Carltona Drake'a (Riz Ahmed). Przez lata stało się to jego obsesją, zniszczyło mu karierę oraz związek z Anne (Michelle Williams). Kiedy jeden z eksperymentów Drake'a - obcy Venom - scala się z  ciałem Brocka, ten otrzymuje nagle supermoce i zdolność robienia wszystkiego, czego tylko zapragnie. Wynaturzony, mroczny, nieprzewidywalny, agresywny Venom w ciele Brocka sprawia, że Eddie próbuje zapanować nad nowymi mocami, choć zauważa też, że są inspirujące i kuszące. Jeden i drugi starają się przejąć kontrolę nad sobą nawzajem i dostać to, czego chcą, coraz bardziej spajając się ze sobą.



? Tom Hardy .... Eddie Brock / Venom
? Michelle Williams .... Anne Weying
? Riz Ahmed .... Carlton Drake / Riot
? Scott Haze .... Szef ochrony Roland Treece
? Reid Scott .... Dr Dan Lewis
? Jenny Slate .... Dr Dora Skirth
? Melora Walters .... Bezdomna Maria
? Woody Harrelson .... Cletus Kasady



Video
ID : 0
Format : MPEG-4 Visual
Format profile : Simple@L5
Format settings, BVOP : No
Format settings, QPel : No
Format settings, GMC : No warppoints
Format settings, Matrix : Default (H.263)
Codec ID : XVID
Codec ID/Hint : XviD
Duration : 1 h 47 min
Bit rate : 3 800 kb/s
Width : 1 280 pixels
Height : 534 pixels
Display aspect ratio : 2.40:1
Frame rate : 23.976 (24000/1001) FPS
Color space : YUV
Chroma subsampling : 4:2:0
Bit depth : 8 bits
Scan type : Progressive
Compression mode : Lossy
Bits/(Pixel*Frame) : 0.232
Stream size : 2.84 GiB (95%)
Writing library : Lavc58.1.100

Audio
ID : 1
Format : MPEG Audio
Format version : Version 1
Format profile : Layer 3
Format settings : Joint stereo / MS Stereo
Codec ID : 55
Codec ID/Hint : MP3
Duration : 1 h 47 min
Bit rate mode : Constant
Bit rate : 192 kb/s
Channel(s) : 2 channels
Sampling rate : 48.0 kHz
Compression mode : Lossy
Stream size : 147 MiB (5%)
Alignment : Aligned on interleaves
Interleave, duration : 24 ms (0.58 video frame)
Interleave, preload duration : 504 ms
Writing library : LAME3.99 (alpha)



http://imagecurl.com/viewer.php?file=86329485737414819700.png
http://imagecurl.com/viewer.php?file=21517140131951702434.png
http://imagecurl.com/viewer.php?file=99829956836388198134.png

DETALE TORRENTA:[ ]
Podziękowania,
 




Komentarze